IMDb: 5.3 HD Ray Meets Helen | Download | Time After Time

Game of Thrones S05E01 FRENCH 1080p HDTV x264 AC3-NoTeam mkv

seeders: 7
leechers: 0
updated:
Added by hazmatt8898 in TV
Torrent verified. Downloaded 867 times.

DownloadFast Safe Anonymous
movies, software, shows...
  • View all Game of Thrones episodes
  • Episode title: The Wars to Come
  • Episode: S05E01
  • Air date: 12 April 2015
  • IMDb link: 0944947
  • TVmaze link: Game of Thrones
  • Original run: 05 December 2010 — Present
  • Summary:

    Seven noble families fight for control of the mythical land of Westeros. Friction between the houses leads to full-scale war. All while a very ancient evil awakens in the farthest north. Amidst the war, a neglected military order of misfits, the Night's Watch, is all that stands between the realms of men and the icy horrors beyond.

    Written by CGUploader2044
Available in versions: 1080p720p480pHDTVWEBRipx264x265
Game of Thrones S05E01 FRENCH 1080p HDTV x264 AC3-NoTeam mkv (Size: 1.16 GB)
  Game.of.Thrones.S05E01.VOSTFR.1080p.HDTVRip.MPEG4-AVC.AC3-NoTeam.mkv 1.16 GB

Description

General

Unique ID : 284869959723322522716492476431830326972 (0xD64FF564C3063F1958CEA2C4336F9EBC)

Complete name : \Game.of.Thrones.S05E01.VOSTFR.1080p.HDTVRip.MPEG4-AVC.AC3-NoTeam .mkv

Format : Matroska

Format version : Version 2

File size : 1.16 GiB

Duration : 54mn 29s

Overall bit rate : 3 041 Kbps

Writing application : Lavf54.63.104

Writing library : Lavf54.63.104



Video

ID : 1

Format : AVC

Format/Info : Advanced Video Codec

Format profile : [email protected]

Format settings, CABAC : Yes

Format settings, ReFrames : 4 frames

Codec ID : V_MPEG4/ISO/AVC

Duration : 54mn 29s

Bit rate : 2 788 Kbps

Width : 1 920 pixels

Height : 1 080 pixels

Display aspect ratio : 16:9

Frame rate mode : Constant

Frame rate : 25.000 fps

Standard : Component

Color space : YUV

Chroma subsampling : 4:2:0

Bit depth : 8 bits

Scan type : MBAFF

Bits/(Pixel*Frame) : 0.054

Stream size : 1.06 GiB (92%)

Default : Yes

Forced : No

Color primaries : BT.709

Transfer characteristics : BT.709

Matrix coefficients : BT.709



Audio

ID : 2

Format : AC-3

Format/Info : Audio Coding 3

Mode extension : CM (complete main)

Format settings, Endianness : Big

Codec ID : A_AC3

Duration : 54mn 29s

Bit rate mode : Constant

Bit rate : 192 Kbps

Channel(s) : 2 channels

Channel positions : Front: L R

Sampling rate : 48.0 KHz

Bit depth : 16 bits

Compression mode : Lossy

Delay relative to video : 14ms

Stream size : 74.8 MiB (6%)

Default : Yes

Forced : No

Related Torrents

torrent name size files age seed leech

Sharing Widget


Download torrent
1.16 GB
seeders:7
leechers:0
Game of Thrones S05E01 FRENCH 1080p HDTV x264 AC3-NoTeam mkv



To share this torrent use the code below and insert it into comments, status messages, forum posts or your signature.

Torrent: Game of Thrones S05E01 FRENCH 1080p HDTV x264 AC3-NoTeam mkv

Trackers

tracker name
http://tracker.pubt.net:2710/announce
udp://9.rarbg.com:2710/announce
udp://9.rarbg.me:2710/announce
udp://coppersurfer.tk:6969/announce
udp://open.demonii.com:1337/announce
udp://tracker.openbittorrent.com:80/announce
udp://tracker.publicbt.com:80/announce
udp://tracker.istole.it:80/announce
µTorrent compatible trackers list

Locations

name
KickassTorrents
Torrent hash: C9374A396F9A9F54FE326F71C50ABE8B9817A77E

All Comments

audio
0/10
video
0/10
please, leave only comments related to that torrent
Sign In

Malware detected at download http://www.fixyourbrowser.com/removal-instructions/remove-genvariant-aware-mplug-32-virus-removal-guide/
hardcoded french subs :/

User Opinions

Report a bug Open chat